[XXX-HD]TeenBurg - Glorietta and Filip 720p

View previous topic View next topic Go down

[XXX-HD]TeenBurg - Glorietta and Filip 720p

Post  Admin on Tue Sep 06, 2011 7:36 pm

[center]Teenburg - Gloriette and Filip





Media Infos:
Spoiler:

H:\nCore\TeenBurg - Glorietta and Filip.wmv
General
Complete name : ********\TeenBurg - Glorietta and Filip.wmv
Format : Windows Media
File size : 1.20 GiB
Duration : 27mn 17s
Overall bit rate mode : Constant
Overall bit rate : 6 278 Kbps
Maximum Overall bit rate : 6 290 Kbps
Performer : *****************
Encoded date : UTC 2011-04-06 05:09:58.226
Copyright : *****************
Video #2
ID : 2
Format : VC-1
Format profile : AP@L2
Codec ID : WVC1
Codec ID/Hint : Microsoft
Description of the codec : Windows Media Video 9 Advanced Profile
Duration : 27mn 17s
Bit rate mode : Constant
Bit rate : 6 000 Kbps
Width : 1 280 pixels
Height : 720 pixels
Display aspect ratio : 16:9
Frame rate : 25.000 fps
Resolution : 24 bits
Colorimetry : 4:2:0
Scan type : Progressive
Bits/(Pixel*Frame) : 0.260
Stream size : 1.14 GiB (96%)
Language : English (US)
Audio #1
ID : 1
Format : WMA2
Format profile : L3
Codec ID : 161
Codec ID/Info : Windows Media Audio 2
Description of the codec : Windows Media Audio 9.2 - 256 kbps, 44 kHz, stereo 1-pass CBR
Duration : 27mn 17s
Bit rate mode : Constant
Bit rate : 256 Kbps
Channel(s) : 2 channels
Sampling rate : 44.1 KHz
Resolution : 16 bits
Stream size : 50.0 MiB (4%)
Language : English (US)

Download Link

Code:

http://www.fileserve.com/file/t2J6kS9    -part 1

http://www.fileserve.com/file/m5Qw9Cg  -part 2

Admin
Admin

Posts: 8
Join date: 2011-09-06
Location: Internet oO

View user profile http://coolstuffz.roflforum.net

Back to top Go down

View previous topic View next topic Back to top

- Similar topics

Permissions in this forum:
You cannot reply to topics in this forum